2024 Lpen - Nov 15, 2021 · Go to the bank’s website. Look for details about how to open a business checking account online. Choose the business bank account you want to open. Make sure you have enough money ready to fund ...

 
Business Customer Service Center: Our business customer service center provides one on one support for your day-to-day transactions and inquiries. HSBC makes it convenient for you to perform business banking transactions when and where you need to. In addition to HSBCnet, we also offer: HSBCnet mobile. ATM banking.. Lpen

Is LPEN.TO stock going to rise? Based on the share price being below its 5, 20 & 50 day exponential moving averages, the current trend is considered strongly ...Post offices are open Monday through Friday from 8:00 a.m. to 5:00 p.m., with the exception of federal holidays. The hours of operation may vary depending on the post office location, which can be found by searching for “post office” on an online map service or by calling 1-800-ASK-USPS or 1-800-275-8777.Agustín Ibáñez Center for Social and Cognitive Neuroscience (CSCN), School of Psychology, Universidad Adolfo Ibáñez, Santiago, Chile;Laboratory of Experimental Psychology and Neuroscience (LPEN), Institute of Cognitive and Translational Neuroscience (INCYT), INECO Foundation, Favaloro University, Buenos Aires, …Loop Energy Provides Corporate Update. Find the latest Loop Energy Inc. (LPEN.TO) stock quote, history, news and other vital information to help you with your stock trading …Student Pass. Includes access to the course materials and the recordings of all LPEN 2023 courses. Access to courses will be granted until December 31, 2023 for Student Pass holders. $800 $ 100. Over 90 hours of CPD throughout the year. Access to 3 student-focused mentorship sessions with LPEN experts.Here’s how you can use Calibre to open EPUB files on Windows. Download and install Calibre on your computer, open the app, and select Add books. Find and select the EPUB file you want to open. Highlight the EPUB file in the main panel and select View at the top. An EPUB file will appear in a new window, which you can resize to your reading ...Loop Energy Inc. (LPEN.TO) is a Canadian company that designs, develops and manufactures hydrogen fuel cells. The stock price, news, quote and history of Loop …Download EPS Viewer from their official page . Navigate to your downloads folder and double-click epsviewersetup.exe to install the program. Finish the installation wizard, then open EPS Viewer . Select Open File, then select Encapsulated PostScript in the Files of Type dropdown menu. Select the image file and select Open.Here’s how you can open DAT files by using the Windows 10 text editor: Locate the DAT file on your computer. Highlight the file with your cursor. Right-click to open the drop-down menu. Click ...2000. 134. Ben Nyland. https://loopenergy.com. Loop Energy Inc. develops, manufactures, and supplies hydrogen fuel cells to vehicle original equipment manufacturers and power generation system manufacturers in Europe, North America, China, and rest of Asia-Pacific. It offers its fuel cell systems for the electrification of commercial vehicles ...12 ሴፕቴ 2023 ... CNW/ - TYCROP, a leading industrial manufacturing and engineering company based in Chilliwack BC, and Loop Energy™ (TSX: LPEN), ...32.31%. Free cash flow. Amount of cash a business has after it has met its financial obligations such as debt and outstanding payments. -633.75K. 91.39%. Get the latest Loop Energy Inc (LPEN) real ... Nov 23, 2023 · SARASOTA COUNTY, FL — With Sarasota-area residents celebrating Thanksgiving on Thursday, here are some closures and schedule changes affecting government offices, facilities and services over ... Loop Energy™ (TSX: LPEN) announces it has been awarded $9.75 million CAD over three years from the Government of Canada through Pacific Economic DevelMarine Le Pen (d. 5 Ağustos 1968, Neuilly-sur-Seine), Fransız siyasetçi ve avukat. Ulusal Birlik partisinin başkanlığını yapmıştır.. 1988 yılında ilk siyasi pozisyonunu bölge meclisi …Jul 11, 2023 · In this tutorial, we'll provide you with a step-by-step guide on how to open a CRDOWNLOAD file and easily access the downloaded content on your Windows 11/10... The Latinx Professional Education Network's mission is to strengthen America by advancing the college education of Hispanic Americans. LPEN will achieve this ...Here are some of our favorite open source DevOps tools for 2021. 1. Kubernetes. With the ubiquity of microservices and container-based software, it’s no surprise that Kubernetes tops this year’s list of open source DevOps tools. Kubernetes, adoption of which rose by 48% in 2020, is used to orchestrate containers.To change that you have to go to the Properties from your Dayz Game (right click in Steam on Dayz) and select experimental from the Beta tab. after the new files are downloaded you should be able to join your new Dayz Server. If you like your friends to join you need to open the Ports i mentioned above. 2. Award. Favorite.Loop Energy Provides Corporate Update. Find the latest Loop Energy Inc. (LPEN.TO) stock quote, history, news and other vital information to help you with your stock trading and investing. Get cricket schedule for all upcoming T20Is, ODIs and Test matches, all ICC events, domestic and international leagues along with date, match timings, ground details and much more on Sportskeeda.Loop Energy Inc. (LPEN.TO) Toronto - Toronto Real Time Price. Currency in CAD. See Loop Energy Inc. (LPEN.TO) stock analyst estimates, including earnings and revenue, EPS, upgrades and downgrades.Legal Professionals Education Network. 133 likes · 6 talking about this. Provider of continuing professional education courses of the highest quality to...To open a file: Click Open , File > Open, or click next to tabs of other open documents. The Open dialog box displays previews of eDrawings, SOLIDWORKS, and published files if the files have been saved in 2008 or later applications. The previews display any changes to custom properties specified in File Explorer. Set the file type.In this video, we'll introduce you to the Lenovo UEFI BIOS and walk you through what you can generally expect to find in each section of this small operating system.LPEN offers online and in-person courses on various topics related to Canadian immigration law, such as study permits, work permits, PR cards, LMIA applications and more. Learn from experts, get the latest updates and earn CPD credits with LPEN..Here's a more in-depth tutorial from the one I made on TikTok! socialstwitch: https://www.twitch.tv/katliente/aboutinstagram: https://www.instagram.com/katl...Oct 22, 2022 · Create a CUE file (if you don't have one). Open Notepad and enter the following lines: FILE " filename.bin " BINARY. TRACK 01 MODE1/2352. INDEX 01 00:00:00. Change filename.bin to the name of the BIN file you are trying to burn. Keep the quotation marks. Save the file to the same folder as the BIN file. Oct 22, 2022 · Create a CUE file (if you don't have one). Open Notepad and enter the following lines: FILE " filename.bin " BINARY. TRACK 01 MODE1/2352. INDEX 01 00:00:00. Change filename.bin to the name of the BIN file you are trying to burn. Keep the quotation marks. Save the file to the same folder as the BIN file. The crimelinkage package is a set of tools to help crime analysts and researchers with tasks related to crime linkage. This package specifically includes methods for criminal case linkage, crime series identification and clustering, and suspect identification. Free and available to all users. CrimeStat.Use the File > Save As menu to convert it to a template file with the WPT file extension, or to DOC, HTML/HTM, CSS, RTF, PDB, PRC, or TXT. If an Act! WPD file is able to be converted to any other format, it's most likely accomplished through the Act! program itself. Open the file there and try an Export or Save As menu to see which formats, if ...2024 Paris Olympics. The Paris 2024 president spoke about Roland-Garros' importance to the French Olympic bid. The exclusive home of Roland-Garros tennis delivering live scores, schedules, draws, players, news, photos, videos and the most complete coverage of The 2023 Roland-Garros Tournament.Clear Channel Outdoor Holdings Inc. 1.35. -0.04. -2.88%. Get Loop Energy Inc (LPEN:Toronto Stock Exchange) real-time stock quotes, news, price and financial information from CNBC.Dr. Anthony Fauci (Kate McKinnon) hosts a game show to help simplify the COVID-19 vaccine rollout.Saturday Night Live. Stream now on Peacock: https://bit.ly/...Satisfied with her haul, she rings out and heads home, where it’s time for photoshoots and uploading. Henry is more of a hobbyist than a full-time shopkeeper, but said when she was taking it more seriously, she made about $600 a week for 20 hours’ worth of work running her eBay store.Since the lighted pen LPEN is a new product Pen Inc must create material master from BUS 301S at Central Michigan University.Nov 15, 2021 · Go to the bank’s website. Look for details about how to open a business checking account online. Choose the business bank account you want to open. Make sure you have enough money ready to fund ... Find the best Grocery Stores Open 24 Hours near you on Yelp - see all Grocery Stores Open 24 Hours open now.Explore other popular Health & Medical near you from over 7 million businesses with over 142 million reviews and opinions from Yelpers.Black Duck Open Hub, formerly Ohloh, is a website which provides a web services suite and online community platform that aims to index the open-source software development community. It was founded by former Microsoft managers Jason Allen and Scott Collison in 2004 and joined by the developer Robin Luckey. As of 15 January 2016, the site lists …Hello. here's my recommendation for you to open such file extension. Kindly visit this Link Provided and there's a list of legitimate application that can open it and some of them are free like GIMP since browsers don't have the ability to open a .DCM file.Open .db file in Excel in 2 minutes without any software.if you have Sqlite3 installed and want to open any table in Excel and save it then watch this video ...Clear Channel Outdoor Holdings Inc. 1.35. -0.04. -2.88%. Get Loop Energy Inc (LPEN:Toronto Stock Exchange) real-time stock quotes, news, price and financial information from CNBC.About the directory. DOAJ is a unique and extensive index of diverse open access journals from around the world, driven by a growing community, and is committed to ensuring quality content is freely available online for everyone. DOAJ is committed to keeping its services free of charge, including being indexed, and its data freely available.62.08. A high-level overview of Loop Energy Inc. (LPEN:CA) stock. Stay up to date on the latest stock price, chart, news, analysis, fundamentals, trading and investment tools.Mar 25, 2022 · Many online brokerage firms, including Schwab and Fidelity, don’t require a minimum to open an account, though some firms may require a modest balance of, say, $500 or $1,000. And at most ... VizyPay is another payments processor targeting small business customers. The service covers mobile, online, or storefront payment solutions and is a good choice if you're just starting out. A big ...How to view PUB format. Click anywhere in the blue area or on the Browse for file button to upload or drag & drop it. You can also add the document by entering its URL in the URL cell. Click on the View button. Your PUB file will be automatically rendered for you to view instantly. Save your PUB pages as an image file.Use the File > Save As menu to convert it to a template file with the WPT file extension, or to DOC, HTML/HTM, CSS, RTF, PDB, PRC, or TXT. If an Act! WPD file is able to be converted to any other format, it's most likely accomplished through the Act! program itself. Open the file there and try an Export or Save As menu to see which formats, if ...How have LPENF shares performed in 2023? Loop Energy's stock was trading at $0.70 at the start of the year. Since then, LPENF shares have decreased by 92.9% and is now trading at $0.05. View the best growth stocks for 2023 here.May 2, 2022 · Loop Energy™ (TSX: LPEN) announces it has been awarded $9.75 million CAD over three years from the Government of Canada through Pacific Economic Devel Open the GTA 5 directory by following this path: C Drive > Program Files (x86) > Steam > Steamapps > Common > Grand Theft Auto V. Download the LUA Plugin from here as a zip file and save it to your desktop. Open the zip file and copy the Scripts folder and LUA.asi file. Paste them into the main directory of GTA 5.Get cricket schedule for all upcoming T20Is, ODIs and Test matches, all ICC events, domestic and international leagues along with date, match timings, ground details and much more on Sportskeeda.SEL Drive a positive school culture. PBIS Engaging and data-driven. Case studies Learn from real teachers and administrators using Classcraft Webinars View our live and on-demand discussions Blog Get updates and insights to help you thriveWhat to Know. A CRDOWNLOAD file is a partial download file in Google Chrome. You can't usually open or convert one without first renaming the file extension. This article explains what CRDOWNLOAD files are and how they're different from normal files, how to know which program will likely open it, and what to do if you need to convert one.View the latest Loop Energy Inc. (LPEN) stock price, news, historical charts, analyst ratings and financial information from WSJ. Here’s how you can use Calibre to open EPUB files on Windows. Download and install Calibre on your computer, open the app, and select Add books. Find and select the EPUB file you want to open. Highlight the EPUB file in the main panel and select View at the top. An EPUB file will appear in a new window, which you can resize to your reading ...Output Level (LPEN = 1) Into a differential 50 Ω load, LO buffer enabled (output frequency = 800 MHz) −0.75 . dBm . Input Level . Externally applied 2×LO, PLL disabled : 0 . dBm . Input Impedance . Externally applied 2×LO, PLL disabled : 50 . Ω . LO Main Divider Range . VCO to mixer, including quadrature divider, see :Stir the yogurt with a spoon and check out the texture. If you notice lumps or chunks, or if the texture seems gelatinous and the yogurt is hard to stir, it’s past its prime and starting to go bad. [3] 3. The yogurt smells sour, weird, or gross. Put your nose close to the yogurt and breathe in slowly.May 14, 2021 · Click the File menu and select Open. This menu is in the upper left corner and will open a window to browse for files on your computer. 4. Select Text CSV in the "File type" menu. You may have to scroll a bit down the list to find it. 5. Select a CSV file and click Open. 12 ሴፕቴ 2023 ... CNW/ - TYCROP, a leading industrial manufacturing and engineering company based in Chilliwack BC, and Loop Energy™ (TSX: LPEN), ...Free Pens from Amsterdam Printing. Request a free sample by calling 1.800.833.6231, or window-shopping the type of pen you like from their catalog. You may request up to 5 samples within a 90-day period, but they’re only free of charge if under $7. Note that other items cannot be sampled.Loop Energy™ (TSX: LPEN) announces it has been awarded $9.75 million CAD over three years from the Government of Canada through Pacific Economic DevelVerses 13-15. - The judgment on Ammon. Verse 13. - Ammon was connected with Israel as being sprung from Lot, and together with Moab, which had the same origin, retained the stamp of its incestuous birth in habits, character, and worship (Genesis 19:30, etc.).The Ammonites seem to have been a predatory and roving nation, though the abundance of …Use the File > Save As menu to convert it to a template file with the WPT file extension, or to DOC, HTML/HTM, CSS, RTF, PDB, PRC, or TXT. If an Act! WPD file is able to be converted to any other format, it's most likely accomplished through the Act! program itself. Open the file there and try an Export or Save As menu to see which formats, if ...32.31%. Free cash flow. Amount of cash a business has after it has met its financial obligations such as debt and outstanding payments. -633.75K. 91.39%. Get the latest Loop Energy Inc (LPEN) real ...Apr 6, 2023 · w3af, or Web Application Attack and Audit Framework, is a scanner with a framework to analyze applications and generate reports with its findings.Once the app is mapped, the tool sends crafted ... There are two ways to go about this depending on how you want to locate it: Open your Google Docs account and search or scroll through until you find the document. Click once to open it, or right-click and choose Open in new tab . Or, open Google Drive and browse through the folder the file is located in.Jan 2, 2019 · Scratch 3.0 is the next generation of Scratch – designed to expand how, what, and where you can create with Scratch. It includes dozens of new sprites, a totally new sound editor, and many new programming blocks. And with Scratch 3.0, you are able to create and play projects on your tablet, in addition to your laptop or desk computer. Click the File menu and select Open. This menu is in the upper left corner and will open a window to browse for files on your computer. 4. Select Text CSV in the "File type" menu. You may have to scroll a bit down the list to find it. 5. Select a CSV file and click Open.We would like to show you a description here but the site won’t allow us.Click the Finish button when done, and launch the program. Step 2: Locate the RAR file that you want to open in Windows File Explorer, then right-click it, and select Open With > 7-Zip. Step 3 ...57 LPN Hiring Near Me jobs available on Indeed.com. Apply to Licensed Practical Nurse, Registered Nurse - Operating Room, Occupational Health Nurse and more!To do this, click on “Services,” then navigate to your account by clicking on “Members,” then “My Account,” and finally “Know Your Customer” (pictured above). After you’ve started the registration process, you will be prompted to enter all your personal details on the registration form pictured below in a pop-up window.Mar 16, 2022 · Step 1: Choose which account is best. First, consider what you’ll be using your online bank account for. If you’re building an emergency fund, you’ll want to look into savings accounts. If ... Quontic Bank: Best Online Bank. Quontic Bank made the list due to its array of digital-forward banking products that charge no monthly fees and come with rewards, high interest rates and access to ...Click the File menu and select Open. This menu is in the upper left corner and will open a window to browse for files on your computer. 4. Select Text CSV in the "File type" menu. You may have to scroll a bit down the list to find it. 5. Select a CSV file and click Open.The third column is causing me problems. I'm trying to combine pockey penetrometer and trixial test results: LPEN.LPEN_PPEN and TRIT.TRIT_CU. The dependant ...There are two ways to go about this depending on how you want to locate it: Open your Google Docs account and search or scroll through until you find the document. Click once to open it, or right-click and choose Open in new tab . Or, open Google Drive and browse through the folder the file is located in.LPEN.TO : 0.1000 (-4.76%) Loop Energy to Announce First Quarter 2023 Financial Results on May 11, 2023 Business Wire - Mon Apr 24, 4:40PM CDT. Loop Energy TM (TSX: LPEN) today announced it will release its financial results for the first quarter of 2023 on Thursday, May 11 th , 2023 after market close. Loop Energy’s management team will hold... Loop Energy™ ("Loop" or the "Company") (TSX:LPEN), a leading hydrogen fuel cell manufacturer, today provides an update on the previously announced review and evaluation of strategic alternatives. Find the latest Loop Energy Inc. (LPEN.TO) stock quote, history, news and other vital information to help you with your stock trading and investing.September 18, 2022. Get Loop Energy Inc (LPEN.TO) real-time stock quotes, news, price and financial information from Reuters to inform your trading and …Covered California announced that 263,320 people had newly selected a health plan for 2023, continuing a trend of steady growth in recent years. The total is more than 14,000 higher than 2021’s total, and 8,000 higher than last year’s figure. In addition, more than 1.4 million Californians renewed their health insurance for 2023, bringing Covered California’s overall enrollment to 1.74 ...SARASOTA COUNTY, FL — With Sarasota-area residents celebrating Thanksgiving on Thursday, here are some closures and schedule changes affecting government offices, facilities and services over ...Mar 9, 2023 · Covered California announced that 263,320 people had newly selected a health plan for 2023, continuing a trend of steady growth in recent years. The total is more than 14,000 higher than 2021’s total, and 8,000 higher than last year’s figure. In addition, more than 1.4 million Californians renewed their health insurance for 2023, bringing Covered California’s overall enrollment to 1.74 ... DoD Directives (updated 11/7/2023) Click any column header to sort table data. Policy on Enlistment Bonuses, Accession Bonuses for New Officers In Critical Skills, Selective Reenlistment Bonuses, and Critical Skills Retention Bonuses for Active Members. Employment of DoD Capabilities in Support of the U.S. Secret Service (USSS), Department of ...Samsung Galaxy Book 12’’ Windows 2-In-1 PC. Best Samsung 2-in-1 Laptop with Pen. (Images credit: Samsung) Samsung is well known for its excellent products, and the Galaxy Book is no different. This smart laptop tablet has the same Super-AMOLED display as Samsung’s smartphones. As a result, you get outstanding visuals.A probate loan is a loan taken out against a future inheritance through the use of a hard money lender. Probate loans result in monthly repayments while probate continues to process, and the lender earns money through interest. Probate loans can also be called Estate loans or inheritance loans.To do this, click on “Services,” then navigate to your account by clicking on “Members,” then “My Account,” and finally “Know Your Customer” (pictured above). After you’ve started the registration process, you will be prompted to enter all your personal details on the registration form pictured below in a pop-up window.LPEN | Complete Loop Energy Inc. stock news by MarketWatch. View real-time stock prices and stock quotes for a full financial overview. Find the best Grocery Stores Open 24 Hours near you on Yelp - see all Grocery Stores Open 24 Hours open now.Explore other popular Health & Medical near you from over 7 million businesses with over 142 million reviews and opinions from Yelpers.Lpen

Nov 9, 2023 · The Complete Guide To Study Permits and Study Plans 2021. February 24, 2021 - 5 hour. An in-depth discussion of study permit applications and the rights of international students and their family. Instructors: Andrew Carvajal, Chantal Desloges & Phil Cohen. More Info / Buy. . Lpen

lpen

CNN —. Daniil Medvedev won his first grand slam title Sunday, beating Novak Djokovic 6-4 6-4 6-4 in the US Open final and ending the world No. 1’s hopes of completing a calendar grand slam.Most of you might have seen CRDOWNLOAD files while downloading video, music files, document files, etc. They are temp files created by Chrome when you download a file. In fact, they are created by ...September 18, 2022. Get Loop Energy Inc (LPEN.TO) real-time stock quotes, news, price and financial information from Reuters to inform your trading and investments.Most of you might have seen CRDOWNLOAD files while downloading video, music files, document files, etc. They are temp files created by Chrome when you download a file. In fact, they are created by ...To open a file: Click Open , File > Open, or click next to tabs of other open documents. The Open dialog box displays previews of eDrawings, SOLIDWORKS, and published files if the files have been saved in 2008 or later applications. The previews display any changes to custom properties specified in File Explorer. Set the file type.Samsung Galaxy Book 12’’ Windows 2-In-1 PC. Best Samsung 2-in-1 Laptop with Pen. (Images credit: Samsung) Samsung is well known for its excellent products, and the Galaxy Book is no different. This smart laptop tablet has the same Super-AMOLED display as Samsung’s smartphones. As a result, you get outstanding visuals.Estimated $49.3K - $62.4K a year. Full-time + 2. 36 hours per week. Monday to Friday + 11. Easily apply. Licensed Practical Nurse (LPN) jobs near me: Licensed Practical Nurse (LPN) Private Duty. Join the Team Select Family* in providing quality home health care…. Employer.2. Resume/Restart the download. If the download has failed, you can delete the crdownload file and start the download again. Open Chrome. Tap the Ctrl+J keyboard shortcut to open the Downloads page. Check to see if any downloads have a ‘Resume’ button. If you see one, click it.Oct 22, 2022 · Create a CUE file (if you don't have one). Open Notepad and enter the following lines: FILE " filename.bin " BINARY. TRACK 01 MODE1/2352. INDEX 01 00:00:00. Change filename.bin to the name of the BIN file you are trying to burn. Keep the quotation marks. Save the file to the same folder as the BIN file. Create a CUE file (if you don't have one). Open Notepad and enter the following lines: FILE " filename.bin " BINARY. TRACK 01 MODE1/2352. INDEX 01 00:00:00. Change filename.bin to the name of the BIN file you are trying to burn. Keep the quotation marks. Save the file to the same folder as the BIN file.Open .db file in Excel in 2 minutes without any software.if you have Sqlite3 installed and want to open any table in Excel and save it then watch this video ...Feb 16, 2021 · by BreakwaterResearch Loop Energy Inc. is the leading hydrogen fuel cell provider for commercial vehicles. It recently filed its prospectus to raise $100mn and list on the TSX, with shares expected to price later this week. About. We are a provider of continuing professional education courses of the highest quality to lawyers, paralegals and Regulated Canadian Immigration Consultants (RCICs). Our instructors are recognized as experts in their legal fields and are passionate about education, mentoring and helping colleagues succeed in their profession. Our courses ...Open your email app. Tap the app icon for the email service in which you received the winmail.dat attachment. 4. Select the email with the winmail.dat attachment. Tap the title of the email to do so. 5. Select the winmail.dat attachment. Tap this attachment at the bottom of the email.Nov 22, 2023 · See the latest Loop Energy Inc Ordinary Shares stock price (LPEN:XTSE), related news, valuation, dividends and more to help you make your investing decisions. Nov 29, 2023 · 2000. 134. Ben Nyland. https://loopenergy.com. Loop Energy Inc. develops, manufactures, and supplies hydrogen fuel cells to vehicle original equipment manufacturers and power generation system manufacturers in Europe, North America, China, and rest of Asia-Pacific. It offers its fuel cell systems for the electrification of commercial vehicles ... Early life and education Childhood. Marion Anne Perrine Le Pen was born on 5 August 1968 in Neuilly-sur-Seine, the youngest of three daughters of Jean-Marie Le Pen, a Breton politician and former paratrooper, and his first wife, Pierrette Le Pen.She was baptized on 25 April 1969 at La Madeleine Church in Paris. Her godfather was Henri Botey, a relative of …Samsung Galaxy Book 12’’ Windows 2-In-1 PC. Best Samsung 2-in-1 Laptop with Pen. (Images credit: Samsung) Samsung is well known for its excellent products, and the Galaxy Book is no different. This smart laptop tablet has the same Super-AMOLED display as Samsung’s smartphones. As a result, you get outstanding visuals.Find the best Grocery Stores Open 24 Hours near you on Yelp - see all Grocery Stores Open 24 Hours open now.Explore other popular Health & Medical near you from over 7 million businesses with over 142 million reviews and opinions from Yelpers.Watch the 2021 US Open (First Round) live stream from ESPN on Watch ESPN. First streamed on Tuesday, August 31, 2021.LPEN | Complete Loop Energy Inc. stock news by MarketWatch. View real-time stock prices and stock quotes for a full financial overview. Continuing Professional Education for Lawyers, Paralegals and Regulated Canadian Immigration Consultants (RCICs)​ · Expert Instructors · Industry Leading CPD ...Create a CUE file (if you don't have one). Open Notepad and enter the following lines: FILE " filename.bin " BINARY. TRACK 01 MODE1/2352. INDEX 01 00:00:00. Change filename.bin to the name of the BIN file you are trying to burn. Keep the quotation marks. Save the file to the same folder as the BIN file.5. Select your EPUB file and click Open. This adds the file to your Calibre library. You can select more than one EPUB file at once by holding down Ctrl while clicking each EPUB file that you want to select. 6. Double-click the EPUB file to open it. This opens the book in the Calibre e-reader window.Most of you might have seen CRDOWNLOAD files while downloading video, music files, document files, etc. They are temp files created by Chrome when you download a file. In fact, they are created by ...Several apps, such as the official Walmart app, Google Maps, and Yelp, can help you find 24-hour Walmart stores near you. To find a 24-hour Walmart using mobile apps: Install the desired app from your smartphone's app store. Open the app and enter "Walmart" in the search bar. Filter the results by selecting the "24 Hours" or "Open Now" option ...Loop Energy Provides Corporate Update. Find the latest Loop Energy Inc. (LPEN.TO) stock quote, history, news and other vital information to help you with your stock trading and investing.9) Outward. Outward is a survival game with lots of Open world fantasy RPG elements. The magic is really creative where you need to cast runes to use magic. The amount of magic spells is fairly limited buy can you can combine runes to make spells. The main key feature of this game is survivability.Create a CUE file (if you don't have one). Open Notepad and enter the following lines: FILE " filename.bin " BINARY. TRACK 01 MODE1/2352. INDEX 01 00:00:00. Change filename.bin to the name of the BIN file you are trying to burn. Keep the quotation marks. Save the file to the same folder as the BIN file.The heating value (or energy value or calorific value) of a substance, usually a fuel or food (see food energy), is the amount of heat released during the combustion of a specified amount of it.. The calorific value is the total energy released as heat when a substance undergoes complete combustion with oxygen under standard conditions.The chemical …How to Open and Convert RAF Files. Step 1: Download and install WidsMob Viewer Pro, you can launch it on your computer. Select the SD card folder from the drop-down list. If you have already set it as the default photo viewer, you can simply click any RAF, JPEG, TIFF, and videos to open all RAF files of the Fujifilm Camera within the …There are two ways to go about this depending on how you want to locate it: Open your Google Docs account and search or scroll through until you find the document. Click once to open it, or right-click and choose Open in new tab . Or, open Google Drive and browse through the folder the file is located in.🔥 8x New YBN Inspired Hud v2 Fivem | https://discord.gg/UVJZGQePyD 🔥Welcome to the next level of Fivem gaming experience with our 8x New YBN Inspired Hud v...ROLLS N PIZZA (475 6th St) Top Offer • 2 Offers Available. ROLLS N PIZZA (475 6th St) 30–45 min. • $$. 4.8.In this tutorial, we'll provide you with a step-by-step guide on how to open a CRDOWNLOAD file and easily access the downloaded content on your Windows 11/10...132,155 LPN jobs available on Indeed.com. Apply to Licensed Practical Nurse, Nurse, Health Care Advisor and more!SARASOTA COUNTY, FL — With Sarasota-area residents celebrating Thanksgiving on Thursday, here are some closures and schedule changes affecting …Here’s an overview of twelve popular open-source BI tools (in no particular order) that are available today. Eclipse BIRT. Apache Superset. Seal Report & ETL. Jaspersoft Business Intelligence Suite Community Edition. Metabase Open Source Edition. ReportServer Community Edition. KNIME Analytics Platform. Helical Insight Community …To actually open up a DOC or DOCX file in Google Docs, all you have to do is navigate to a new document, and then the File header menu. From there, just select Open and then navigate to the last header that says Upload. After that, all you have to do is upload your document, and Google Docs will handle the rest.Here’s how you can open DAT files by using the Windows 10 text editor: Locate the DAT file on your computer. Highlight the file with your cursor. Right-click to open the drop-down menu. Click ...Bib2x is able to convert BIB files to formats like XML, RTF, and XHTML, on Windows, Mac, and Linux. Another option, though only for Mac, is BibDesk, which can convert BIB to PDF and RIS. Another way to convert BIB to RIS, for use with EndNote, is with bibutils. See the thread Conversion of BibTeX to Endnote Bibliography on Stack Exchange for ...©2020 MoneyGram. Licensed as a Money Transmitter by the New York State Department of Financial Services. Massachusetts Check Seller License # CS0025, Foreign Transmittal License # FT89432, NMLS # 898432.Black Duck Open Hub, formerly Ohloh, is a website which provides a web services suite and online community platform that aims to index the open-source software development community. It was founded by former Microsoft managers Jason Allen and Scott Collison in 2004 and joined by the developer Robin Luckey. As of 15 January 2016, the site lists …19. Access PassView. This utility reveals the database password of every password-protected mdb file that created with Microsoft Access 95/97/2000/XP or with Jet Database Engine 3.0/4.0 . It can be very useful if you forgot your Access Database password and you want to recover it. Share.LPEN | Legal Professionals Education Network | 723 followers on LinkedIn. Learn from the Experts | We are a provider of continuing professional education courses of the highest quality to lawyers ...Step 1. On the Paddy Power website or Paddy Power App click on the 'Join Now' button. This can be found towards the top right of the page. Step 2. Enter your personal details as requested. Please ensure that you double check the information is correct and that spelling is accurate to avoid any issues logging in or trying to recover your details ...Step 1: Choose which account is best. First, consider what you’ll be using your online bank account for. If you’re building an emergency fund, you’ll want to look into savings accounts. If ...SEL Drive a positive school culture. PBIS Engaging and data-driven. Case studies Learn from real teachers and administrators using Classcraft Webinars View our live and on-demand discussions Blog Get updates and insights to help you thriveSee the company profile for Loop Energy Inc. (LPEN.TO) including business summary, industry/sector information, number of employees, business summary, corporate governance, key executives and ...August 30, 2022 - 3 hours. An in-depth course on applications for grant of citizenship and citizenship certificates. Instructors: Chantal Desloges and Rupal Rokhit. More Info / Buy. $150.Heat up the oil in a large stock pot over medium high heat until shimmering. Sauté the onion until soft, then add the garlic and cook until fragrant. Reduce the heat to medium low and add the spices, liquid smoke, Worcestershire and Tabasco sauce. Cook for 3 minutes, stirring occasionally.To do this, follow these steps: Press Win + E to open File Explorer. Go to the address bar and search for the following: C:\Program Files\Windows NT\Accessories\. Now right-click on wordpad, and select Show more options > Create shortcut. If Windows asks for your confirmation, click Yes to create it.Apr 6, 2021 · An FLV file is a Flash Video file. Open one with VLC or Winamp. Convert to MP4, MOV, GIF, etc. with CloudConvert or Any Video Converter. This article explains what FLV files are, how to play one on any platform, and how to convert one to a different video format so that it plays correctly on your device. Marine Le Pen (d. 5 Ağustos 1968, Neuilly-sur-Seine), Fransız siyasetçi ve avukat. Ulusal Birlik partisinin başkanlığını yapmıştır.. 1988 yılında ilk siyasi pozisyonunu bölge meclisi …25 ፌብ 2021 ... TORONTO, Feb. 25, 2021 /CNW/ - The following issues have been halted by IIROC: Company: Loop Energy Inc.TSX Symbol: LPENAll Issues: ...We would like to show you a description here but the site won’t allow us.Jul 31, 2023 · Choose the CUE file that goes with the BIN file you want to open and click on it while using your virtual drive's selection tool. If you want, you can change the name of the file, which becomes a virtual disc, so you can tell it apart from the BIN and CUE files more easily. 4. Choose "mount". A probate loan is a loan taken out against a future inheritance through the use of a hard money lender. Probate loans result in monthly repayments while probate continues to process, and the lender earns money through interest. Probate loans can also be called Estate loans or inheritance loans.Step 2: Drag and drop the XLSX file onto an Excel window to open it. If Excel is already open, you can use your mouse to drag the XLSX file onto the open spreadsheet. To do so, click on the XLSX file, keep the mouse button held down, drag the file onto the open Excel spreadsheet and then release the button. This will also open the XLSX file.. Up down