2024 Lpen - Create a CUE file (if you don't have one). Open Notepad and enter the following lines: FILE " filename.bin " BINARY. TRACK 01 MODE1/2352. INDEX 01 00:00:00. Change filename.bin to the name of the BIN file you are trying to burn. Keep the quotation marks. Save the file to the same folder as the BIN file.

 
Apr 6, 2023 · w3af, or Web Application Attack and Audit Framework, is a scanner with a framework to analyze applications and generate reports with its findings.Once the app is mapped, the tool sends crafted ... . Lpen

Real-time Price Updates for Loop Energy Inc (LPEN-T), along with buy or sell indicators, analysis, charts, historical performance, news and moreIs LPEN.TO stock going to rise? Based on the share price being below its 5, 20 & 50 day exponential moving averages, the current trend is considered strongly ...Click the File menu and select Open. This menu is in the upper left corner and will open a window to browse for files on your computer. 4. Select Text CSV in the "File type" menu. You may have to scroll a bit down the list to find it. 5. Select a CSV file and click Open.Jan 24, 2018 · 2024 Paris Olympics. The Paris 2024 president spoke about Roland-Garros' importance to the French Olympic bid. The exclusive home of Roland-Garros tennis delivering live scores, schedules, draws, players, news, photos, videos and the most complete coverage of The 2023 Roland-Garros Tournament. To open a file: Click Open , File > Open, or click next to tabs of other open documents. The Open dialog box displays previews of eDrawings, SOLIDWORKS, and published files if the files have been saved in 2008 or later applications. The previews display any changes to custom properties specified in File Explorer. Set the file type.Loop Energy’s eFlow™ Technology offers industry leading fuel efficiency: Your lowest capital cost and lowest operating cost. Unique bipolar plate with trapezoidal flow field and narrowing channels to deliver higher fuel efficiency, greater longevity and lower TCO. Manufactured in-house to ensure state-of-the-art performance and quality ... We would like to show you a description here but the site won’t allow us.Prometheus and Grafana. Prometheus and Grafana are widely used open-source tools for IT infrastructure monitoring. Prometheus is a 100% open-source tool, and its development is supported by Grafana in terms of enhancing the features to help both Grafana and Prometheus customers. Kubernetes Monitoring with Prometheus and …The sector can benefit from advances in hydrology data collection and analysis of river basins. According to IRENA [ 250 ], the global technical hydropower potential is at 15,955 TWh/year. Considering that the global generation in 2018 was 4200 TWh [ 251 ], there a significant amount of it remains untapped.LPEN | Legal Professionals Education Network | 723 followers on LinkedIn. Learn from the Experts | We are a provider of continuing professional education courses of the highest quality to lawyers ... Real-time Price Updates for Loop Energy Inc (LPEN-T), along with buy or sell indicators, analysis, charts, historical performance, news and more 1. Turn the dial on the lock clockwise three times. Turn the dial to the right. This clears the lock and resets it so that it's ready to open. [2] 2. Stop turning when the marker points to the first number of the combination. The marker or line should be at the top of the dial, pointing to the twelve o'clock position.Unequal Variance • The linear regression model is y i = β 0 +β 1x i1 +...+β px ip +ε i, where the random errors are iid N(0,σ2). • What if the ε i’s are indep. w/ unequal var N(0,σ2 i)? • The ordinary least squares (OLS) estimates for β j’s remain unbiased, but no longer have the minimum variance.Description. The London Political Economy Network (LPEN) was established in 2020. Its main purpose is to bring together the various research centers in the London area related to political economy. One of the main initiatives of LPEN is to organize an annual workshop for PhD students from the London area working on political economy …LPEN offers the best continuing legal education programs to attorneys, paralegals, and licensed Canadian immigration consultants (RCICs). LPEN professors are dedicated about education, mentoring, and assisting peers in advancing their careers in law and are acknowledged authorities in their professions.Access Loop Energy Inc. (LPEN.F)'s detailed historical, current, and forecasted fundamental metrics. Review metric definitions and analyze performance ...Note The function pointer for the ConnectEx function must be obtained at run time by making a call to the WSAIoctl function with the SIO_GET_EXTENSION_FUNCTION_POINTER opcode specified. The input buffer passed to the WSAIoctl function must contain WSAID_CONNECTEX, a globally unique identifier …Track Loop Energy Inc (LPEN) Stock Price, Quote, latest community messages, chart, news and other stock related information.Apr 6, 2021 · An FLV file is a Flash Video file. Open one with VLC or Winamp. Convert to MP4, MOV, GIF, etc. with CloudConvert or Any Video Converter. This article explains what FLV files are, how to play one on any platform, and how to convert one to a different video format so that it plays correctly on your device. Hyaluronidase : 몸속에서 국소마취제를 더 잘 퍼지게 하는 역할을 합니다. 허리에 하면 L-PEN이라 부르고 목에 시술을 하면 C-PEN이라고 합니다. 주사나 시술 이후에 통증이 그대로 있거나 며칠 몇 주 지나고 통증이 똑같이 발생하는 경우도 많습니다. 주사나 시술은 ...We would like to show you a description here but the site won’t allow us.Loop Energy™ ("Loop" or the "Company") (TSX:LPEN), a leading hydrogen fuel cell manufacturer, today provides an update on the previously announced review and evaluation of strategic alternatives. Find the latest Loop Energy Inc. (LPEN.TO) stock quote, history, news and other vital information to help you with your stock trading and investing. ©2020 MoneyGram. Licensed as a Money Transmitter by the New York State Department of Financial Services. Massachusetts Check Seller License # CS0025, Foreign Transmittal License # FT89432, NMLS # 898432.Thanks! We're glad this was helpful. Thank you for your feedback. As a small thank you, we’d like to offer you a $30 gift card (valid at GoNift.com).We would like to show you a description here but the site won’t allow us.Dec 1, 2023 · How have LPENF shares performed in 2023? Loop Energy's stock was trading at $0.70 at the start of the year. Since then, LPENF shares have decreased by 92.9% and is now trading at $0.05. View the best growth stocks for 2023 here. .Here's a more in-depth tutorial from the one I made on TikTok! socialstwitch: https://www.twitch.tv/katliente/aboutinstagram: https://www.instagram.com/katl...Made for musicians and content creators, Sampld is the best destination to find quality sounds, all for free and royalty-free. Read the Sampld license. arrow_outward. We're launching this new version of Sampld on Product Hunt - show some ️ and support on the page! It would mean the world to the team at Sampld.Discover all the factors affecting Loop Energy's share price. LPEN is currently rated as a Value Trap | Stockopedia.Track Loop Energy Inc (LPEN) Stock Price, Quote, latest community messages, chart, news and other stock related information.Is LPEN.TO stock going to rise? Based on the share price being below its 5, 20 & 50 day exponential moving averages, the current trend is considered strongly ...SUMMARY. This course will provide an in-depth discussion of the routes to sponsoring a family member to Canada, more specifically which types of family relationships are sponsorable and how to pick the preferred strategy for securing permanent residence in Canada. Topics will include the in-Canada versus overseas option, temporary visas ...Hyaluronidase : 몸속에서 국소마취제를 더 잘 퍼지게 하는 역할을 합니다. 허리에 하면 L-PEN이라 부르고 목에 시술을 하면 C-PEN이라고 합니다. 주사나 시술 이후에 통증이 그대로 있거나 며칠 몇 주 지나고 통증이 똑같이 발생하는 경우도 많습니다. 주사나 시술은 ...August 30, 2022 - 3 hours. An in-depth course on applications for grant of citizenship and citizenship certificates. Instructors: Chantal Desloges and Rupal Rokhit. More Info / Buy. $150.A JPEG file is an image saved in a compressed graphic format standardized by the Joint Photographic Experts Group ( JPEG ). It supports up to 24-bit color and utilizes lossy compression, which may noticeably reduce the image quality if high amounts are applied. Users commonly save digital photos and web graphics as JPEG files.To open a file: Click Open , File > Open, or click next to tabs of other open documents. The Open dialog box displays previews of eDrawings, SOLIDWORKS, and published files if the files have been saved in 2008 or later applications. The previews display any changes to custom properties specified in File Explorer. Set the file type.Annual Pass. The ULTIMATE pass. Includes live attendance, access to the course materials and the recordings of all of LPEN 2023 courses. $ 800. Over 90 hours of CPD throughout the year. Access to expert Mentorship Series Sessions throughout the year. Find out the direct holders, institutional holders and mutual fund holders for Loop Energy Inc. (LPEN.TO).Real-time Price Updates for Loop Energy Inc (LPEN-T), along with buy or sell indicators, analysis, charts, historical performance, news and moreClick the Finish button when done, and launch the program. Step 2: Locate the RAR file that you want to open in Windows File Explorer, then right-click it, and select Open With > 7-Zip. Step 3 ...Capital One 360: Best Large Bank. We chose Capital One 360 because its hybrid structure offers the best of both worlds: low-fee, competitive online accounts and access to in-person banking at its ...InvenTree is an open-source Inventory Management System which provides powerful low-level stock control and part tracking. The core of the InvenTree system is a Python/Django database backend which provides an admin interface (web-based) and a REST API for interaction with external interfaces and applications.9) Outward. Outward is a survival game with lots of Open world fantasy RPG elements. The magic is really creative where you need to cast runes to use magic. The amount of magic spells is fairly limited buy can you can combine runes to make spells. The main key feature of this game is survivability.2024 Paris Olympics. The Paris 2024 president spoke about Roland-Garros' importance to the French Olympic bid. The exclusive home of Roland-Garros tennis delivering live scores, schedules, draws, players, news, photos, videos and the most complete coverage of The 2023 Roland-Garros Tournament.Tap the App Store search bar. Type in izip, then tap Search. Tap GET. Enter your Apple ID password or Touch ID. 2. Open your RAR file. Open the app in which the RAR file is stored, then tap the RAR file. It will "open" to a grey screen with the RAR file's name in the middle of the screen.Real-time Price Updates for Loop Energy Inc (LPEN-T), along with buy or sell indicators, analysis, charts, historical performance, news and more.In this tutorial, we'll provide you with a step-by-step guide on how to open a CRDOWNLOAD file and easily access the downloaded content on your Windows 11/10...Annual Pass. The ULTIMATE pass. Includes live attendance, access to the course materials and the recordings of all of LPEN 2023 courses. $ 800. Over 90 hours of CPD throughout the year. Access to expert Mentorship Series Sessions throughout the year. Apr 6, 2023 · w3af, or Web Application Attack and Audit Framework, is a scanner with a framework to analyze applications and generate reports with its findings.Once the app is mapped, the tool sends crafted ... There are two ways to go about this depending on how you want to locate it: Open your Google Docs account and search or scroll through until you find the document. Click once to open it, or right-click and choose Open in new tab . Or, open Google Drive and browse through the folder the file is located in.Get the latest Loop Energy Inc. (LPEN.TO) stock news and headlines to help you in your trading and investing decisions.An FLV file is a Flash Video file. Open one with VLC or Winamp. Convert to MP4, MOV, GIF, etc. with CloudConvert or Any Video Converter. This article explains what FLV files are, how to play one on any platform, and how to convert one to a different video format so that it plays correctly on your device.Prometheus and Grafana. Prometheus and Grafana are widely used open-source tools for IT infrastructure monitoring. Prometheus is a 100% open-source tool, and its development is supported by Grafana in terms of enhancing the features to help both Grafana and Prometheus customers. Kubernetes Monitoring with Prometheus and Grafana | Kubernetes ...Schedule. Rankings. Stats. Standings. How To Watch PGA TOUR. All you need to know about the 2021 Open, including day-by-day results and analysis from Royal St. George's.Hyaluronidase : 몸속에서 국소마취제를 더 잘 퍼지게 하는 역할을 합니다. 허리에 하면 L-PEN이라 부르고 목에 시술을 하면 C-PEN이라고 합니다. 주사나 시술 이후에 통증이 그대로 있거나 며칠 몇 주 지나고 통증이 똑같이 발생하는 경우도 많습니다. 주사나 시술은 ...10. Apache Nutch. 11. Heritrix. Last, but not least…. Hey, we're Apify. You can build, deploy, share, and monitor your scrapers and crawlers on the Apify platform. Check us out. The amount of data online hit 40 zettabytes in 2020.Loop Energy Inc. (LPEN.TO) Toronto - Toronto Real Time Price. Currency in CAD. See Loop Energy Inc. (LPEN.TO) stock analyst estimates, including earnings and revenue, EPS, upgrades and downgrades.Check out our LPEN stock chart to see a history of performance, current stock value, and a timeline of financial events & indicators for a full analysis today.Create a CUE file (if you don't have one). Open Notepad and enter the following lines: FILE " filename.bin " BINARY. TRACK 01 MODE1/2352. INDEX 01 00:00:00. Change filename.bin to the name of the BIN file you are trying to burn. Keep the quotation marks. Save the file to the same folder as the BIN file.To do this, click on “Services,” then navigate to your account by clicking on “Members,” then “My Account,” and finally “Know Your Customer” (pictured above). After you’ve started the registration process, you will be prompted to enter all your personal details on the registration form pictured below in a pop-up window.How to view PUB format. Click anywhere in the blue area or on the Browse for file button to upload or drag & drop it. You can also add the document by entering its URL in the URL cell. Click on the View button. Your PUB file will be automatically rendered for you to view instantly. Save your PUB pages as an image file.TMX Group Limited and its affiliates do not endorse or recommend any securities issued by any companies identified on, or linked through, this site.LPEN offers online and in-person courses on various topics related to Canadian immigration law, such as study permits, work permits, PR cards, LMIA applications and more. Learn from experts, get the latest updates and earn CPD credits with LPEN.Open mail relay. An open mail relay is a Simple Mail Transfer Protocol (SMTP) server configured in such a way that it allows anyone on the Internet to send e-mail through it, not just mail destined to or originating from known users. [1] [2] [3] This used to be the default configuration in many mail servers; indeed, it was the way the Internet ...Open your email app. Tap the app icon for the email service in which you received the winmail.dat attachment. 4. Select the email with the winmail.dat attachment. Tap the title of the email to do so. 5. Select the winmail.dat attachment. Tap this attachment at the bottom of the email.Loop Energy Inc. (LPEN)의 시가 총액은 $5517195이며 $0.16051376의 라이브 가격이 있습니다. 더 많은 통계를 확인하고 다른 주식 및 암호화와 비교하십시오.To open a file: Click Open , File > Open, or click next to tabs of other open documents. The Open dialog box displays previews of eDrawings, SOLIDWORKS, and published files if the files have been saved in 2008 or later applications. The previews display any changes to custom properties specified in File Explorer. Set the file type.View the latest Loop Energy Inc. (LPEN) stock price, news, historical charts, analyst ratings and financial information from WSJ.Annual Pass. The ULTIMATE pass. Includes live attendance, access to the course materials and the recordings of all of LPEN 2023 courses. $ 800. Over 90 hours of CPD throughout the year. Access to expert Mentorship Series Sessions throughout the year. Free Pens from Amsterdam Printing. Request a free sample by calling 1.800.833.6231, or window-shopping the type of pen you like from their catalog. You may request up to 5 samples within a 90-day period, but they’re only free of charge if under $7. Note that other items cannot be sampled.1. For the possible variants, the following is simplest/concize: class Product { long id; InternationalText name; InternationalText description; } class InternationalText { long id; } class LocalizedText { long id; InternationalText international; Locale locale; String text; } As the InternationalText is not really needed, it does not need a ...SUMMARY. This course will review common process of the Landlord and Tenant Board of Ontario (LTB) and statutory requirements under the Residential Tenancies Act, 2006 (RTA) that must be satisfied to obtain favorable results to achieve desired results for clients. We will also cover beneficial strategies and tips in offering legal advice to ...LPEN.TO : 0.0750 (+7.14%) Loop Energy to Announce First Quarter 2023 Financial Results on May 11, 2023 Business Wire - Mon Apr 24, 4:40PM CDT. Loop Energy TM (TSX: LPEN) today announced it will release its financial results for the first quarter of 2023 on Thursday, May 11 th , 2023 after market close.823 Ratings. Atera’s all-in-one platform enables IT professionals to gain access, visibility, and control over all their networks and devices from anywhere, so they can work smarter and faster. With Atera, you can manage your entire IT operation — from patch management, IT automations, advanced reporting, alerts, helpdesk, ticketing, and ...19. Access PassView. This utility reveals the database password of every password-protected mdb file that created with Microsoft Access 95/97/2000/XP or with Jet Database Engine 3.0/4.0 . It can be very useful if you forgot your Access Database password and you want to recover it. Share.Are you looking for a comprehensive and affordable health plan for federal employees and annuitants? Check out the Aetna HealthFund CDHP and Aetna Value Plan brochure to learn about the benefits, costs, and features of this plan. You can compare the plan options, find out how to enroll, and access useful resources and contacts. To open a file: Click Open , File > Open, or click next to tabs of other open documents. The Open dialog box displays previews of eDrawings, SOLIDWORKS, and published files if the files have been saved in 2008 or later applications. The previews display any changes to custom properties specified in File Explorer. Set the file type.SEL Drive a positive school culture. PBIS Engaging and data-driven. Case studies Learn from real teachers and administrators using Classcraft Webinars View our live and on-demand discussions Blog Get updates and insights to help you thriveBEST SELLER! OFFICE SUPPLIES · OFFICE EQUIPMENTS · PAPER PRODUCTS · FACILITY SUPPLIES · IT SUPPLIES · PANTRY SUPPLIES. Brands. --- Please Select --- ...Loop Energy™ (TSX:LPEN), a leading hydrogen fuel cell manufacturer, is pleased to announce it has been selected to supply fuel cell systems for a new fire truck platform by an established ...Lpen

Check out our LPEN stock chart to see a history of performance, current stock value, and a timeline of financial events & indicators for a full analysis today.. Lpen

lpen

I see your face. And it's nothing like I've ever known before. [Chorus 1: Anna & Hans, Both] Love is an open door. Love is an open door (Door) Love is an open door with you (With you) With you ...19. Access PassView. This utility reveals the database password of every password-protected mdb file that created with Microsoft Access 95/97/2000/XP or with Jet Database Engine 3.0/4.0 . It can be very useful if you forgot your Access Database password and you want to recover it. Share.Jul 13, 2022 · Use the File > Save As menu to convert it to a template file with the WPT file extension, or to DOC, HTML/HTM, CSS, RTF, PDB, PRC, or TXT. If an Act! WPD file is able to be converted to any other format, it's most likely accomplished through the Act! program itself. Open the file there and try an Export or Save As menu to see which formats, if ... 57 LPN Hiring Near Me jobs available on Indeed.com. Apply to Licensed Practical Nurse, Registered Nurse - Operating Room, Occupational Health Nurse and more!2023 COURSES. A practical course on how to conduct appeals in the Immigration and Refugee Board of Canada. Hands on training on how to litigate in the IRB, including the preparation of examinations and submissions.See the latest Loop Energy Inc Ordinary Shares stock price (LPEN:XTSE), related news, valuation, dividends and more to help you make your investing decisions.Tap the App Store search bar. Type in izip, then tap Search. Tap GET. Enter your Apple ID password or Touch ID. 2. Open your RAR file. Open the app in which the RAR file is stored, then tap the RAR file. It will "open" to a grey screen with the RAR file's name in the middle of the screen.Description: jBPM is a free, open-source BPM software and workflow engine that bridges the gap between business analysts and developers. The software can function as a standalone service or can be embedded in custom formats. With jBPM, users have access to a business application capable of modeling business goals, improving visibility ...Nov 30, 2023 · 62.08. A high-level overview of Loop Energy Inc. (LPEN:CA) stock. Stay up to date on the latest stock price, chart, news, analysis, fundamentals, trading and investment tools. View the latest Loop Energy Inc. (LPEN) stock price, news, historical charts, analyst ratings and financial information from WSJ.Little tutorial on how to open the base.scs file.EXTRACTOR: http://www.mediafire.com/?tb08h32jh4hrle2 LINK: http://download.scaniadrivergame.com/scs_extracto...Loop Energy Inc. (LPEN.TO) Toronto - Toronto Real Time Price. Currency in CAD. See Loop Energy Inc. (LPEN.TO) stock analyst estimates, including earnings and revenue, EPS, upgrades and downgrades. 19. Access PassView. This utility reveals the database password of every password-protected mdb file that created with Microsoft Access 95/97/2000/XP or with Jet Database Engine 3.0/4.0 . It can be very useful if you forgot your Access Database password and you want to recover it. Share.Satisfied with her haul, she rings out and heads home, where it’s time for photoshoots and uploading. Henry is more of a hobbyist than a full-time shopkeeper, but said when she was taking it more seriously, she made about $600 a week for 20 hours’ worth of work running her eBay store.2022 USPA Barbell Brigade Open. The OpenPowerlifting project aims to create a permanent, accurate, convenient, accessible, open archive of the world's powerlifting data.We would like to show you a description here but the site won’t allow us.Loop Energy Inc (LPEN:CN) PT Lowered to Cdn$0.65 at Raymond JamesRaymond James analyst Michael Glen lowered the price target on Loop Energy Inc (LPEN:CN) to Cdn ...Nov 15, 2021 · Go to the bank’s website. Look for details about how to open a business checking account online. Choose the business bank account you want to open. Make sure you have enough money ready to fund ... Nov 22, 2023 · See the latest Loop Energy Inc Ordinary Shares stock price (LPEN:XTSE), related news, valuation, dividends and more to help you make your investing decisions. SimpleHRM. SimpleHRM is an open source HR management tool for SMbs, which allows users to manage employee information, travel, benefits, leave, and expense management. The platform is also equipped with workforce statistic reporting and analysis tools, which centralize all employee data and tracking. This creates a paperless …Step 1. On the Paddy Power website or Paddy Power App click on the 'Join Now' button. This can be found towards the top right of the page. Step 2. Enter your personal details as requested. Please ensure that you double check the information is correct and that spelling is accurate to avoid any issues logging in or trying to recover your details ...Use the File > Save As menu to convert it to a template file with the WPT file extension, or to DOC, HTML/HTM, CSS, RTF, PDB, PRC, or TXT. If an Act! WPD file is able to be converted to any other format, it's most likely accomplished through the Act! program itself. Open the file there and try an Export or Save As menu to see which formats, if ...Here are some of the very best ways to do just that. 1. Office Editing for Docs, Sheets & Slides. The first way to open XLS and XLSX files for free is to use the Chrome extension Office Editing for Docs, Sheets, & Slides. This extension comes automatically installed on many installations of Chrome, so for many users, you won’t even have to ...Clear Channel Outdoor Holdings Inc. 1.35. -0.04. -2.88%. Get Loop Energy Inc (LPEN:Toronto Stock Exchange) real-time stock quotes, news, price and financial information from CNBC.Open .db file in Excel in 2 minutes without any software.if you have Sqlite3 installed and want to open any table in Excel and save it then watch this video ...Find out the direct holders, institutional holders and mutual fund holders for Loop Energy Inc. (LPEN.TO).LPEN CA54352E1007 Market Closed - Toronto Stock Exchange. Other stock markets. 03:59:59 2023-11-29 pm EST 5-day change 1st Jan Change ...See the company profile for Loop Energy Inc. (LPEN.TO) including business summary, industry/sector information, number of employees, business summary, corporate governance, key executives and ...Varo. Varo Money has both a checking account and savings account available, all managed online or through the dedicated mobile app. According to Varo, it should take you no more than 5 minutes to open an account online.³. The Varo checking account is fee-free, and offers the following features:³. A Varo debit card.Real-time Price Updates for Loop Energy Inc (LPEN-T), along with buy or sell indicators, analysis, charts, historical performance, news and more 32.31%. Free cash flow. Amount of cash a business has after it has met its financial obligations such as debt and outstanding payments. -633.75K. 91.39%. Get the latest Loop Energy Inc (LPEN) real ... Download this stock vector: Detailed lpen flashlight diagram showing a cross-section or ghosted view of the light & lens construction - W8A9H5 from Alamy's ...Loop Energy Inc. (LPEN.TO) Toronto - Toronto Real Time Price. Currency in CAD. See Loop Energy Inc. (LPEN.TO) stock analyst estimates, including earnings and revenue, EPS, upgrades and downgrades.Student Pass. Includes access to the course materials and the recordings of all LPEN 2023 courses. Access to courses will be granted until December 31, 2023 for Student Pass holders. $800 $ 100. Over 90 hours of CPD throughout the year. Access to 3 student-focused mentorship sessions with LPEN experts.32.31%. Free cash flow. Amount of cash a business has after it has met its financial obligations such as debt and outstanding payments. -633.75K. 91.39%. Get the latest Loop Energy Inc (LPEN) real ... Find out the direct holders, institutional holders and mutual fund holders for Loop Energy Inc. (LPEN.TO).Most of you might have seen CRDOWNLOAD files while downloading video, music files, document files, etc. They are temp files created by Chrome when you download a file. In fact, they are created by ...Nov 15, 2021 · Go to the bank’s website. Look for details about how to open a business checking account online. Choose the business bank account you want to open. Make sure you have enough money ready to fund ... Loop Energy Inc. (LPEN.TO) Toronto - Toronto Real Time Price. Currency in CAD. See Loop Energy Inc. (LPEN.TO) stock analyst estimates, including earnings and revenue, EPS, upgrades and downgrades. The sector can benefit from advances in hydrology data collection and analysis of river basins. According to IRENA [ 250 ], the global technical hydropower potential is at 15,955 TWh/year. Considering that the global generation in 2018 was 4200 TWh [ 251 ], there a significant amount of it remains untapped.3. Choose the CUE file. For most virtual drive programs, you may need to use the corresponding CUE file rather than the original BIN file to access the contents of the file. Choose the CUE file that goes with the BIN file you want to open and click on it while using your virtual drive's selection tool.In this article. The ConnectEx function establishes a connection to a specified socket, and optionally sends data once the connection is established. The ConnectEx function is only supported on connection-oriented sockets. Note This function is a Microsoft-specific extension to the Windows Sockets specification.823 Ratings. Atera’s all-in-one platform enables IT professionals to gain access, visibility, and control over all their networks and devices from anywhere, so they can work smarter and faster. With Atera, you can manage your entire IT operation — from patch management, IT automations, advanced reporting, alerts, helpdesk, ticketing, and ...To actually open up a DOC or DOCX file in Google Docs, all you have to do is navigate to a new document, and then the File header menu. From there, just select Open and then navigate to the last header that says Upload. After that, all you have to do is upload your document, and Google Docs will handle the rest.7 ሴፕቴ 2023 ... ... (LPEN) on September 7, 2023 at 11:00am EST titled “Judicial Review: A to Z”. Course Summary: This course will provide an overview of the ...Check out our LPEN stock chart to see a history of performance, current stock value, and a timeline of financial events & indicators for a full analysis today.Real-time Price Updates for Loop Energy Inc (LPEN-T), along with buy or sell indicators, analysis, charts, historical performance, news and moreNov 22, 2023 · See the latest Loop Energy Inc Ordinary Shares stock price (LPEN:XTSE), related news, valuation, dividends and more to help you make your investing decisions. Applying for the Wharton MBA: Application & Admission Requirements. Below you will find full details on prerequisites, application fees, essay topics, GRE/GMAT test scores, references and other details you’ll need to satisfy the Wharton MBA Admission requirements. However, the most detailed instructions are included in the application itself.🔥 8x New YBN Inspired Hud v2 Fivem | https://discord.gg/UVJZGQePyD 🔥Welcome to the next level of Fivem gaming experience with our 8x New YBN Inspired Hud v...Grove - 3-Axis Digital Accelerometer (LIS3DHTR) is a low-cost 3 - Axis accelerometer in a bundle of Grove products. It is based on the LIS3DHTR chip which provides multiple ranges and interfaces selection. You can never believe that such a tiny 3 - Axis accelerometer can support I2C, SPI, and ADC GPIO interfaces, which means you …Weighted Least Squares For the model, y i = β 0+β 1x i1+...+β px ip+ε i, where ε i’s are indep. w/ var(ε i) = σ 2 i, the Weighted Least Squares method finding estimates forβ’s by Find the best 24 Hour Stores near you on Yelp - see all 24 Hour Stores open now.Explore other popular Health & Medical near you from over 7 million businesses with over 142 million reviews and opinions from Yelpers.Create a CUE file (if you don't have one). Open Notepad and enter the following lines: FILE " filename.bin " BINARY. TRACK 01 MODE1/2352. INDEX 01 00:00:00. Change filename.bin to the name of the BIN file you are trying to burn. Keep the quotation marks. Save the file to the same folder as the BIN file.SUMMARY. On the second course of our 4-course LMIA series, we move from recruitment to the preparation of LMIA applications. This course will provide an in …Mar 12, 2023 · Most of you might have seen CRDOWNLOAD files while downloading video, music files, document files, etc. They are temp files created by Chrome when you download a file. In fact, they are created by ... Forem. Language: Ruby, JavaScript, HTML. GitHub Stars: 16.8k+. Forem is open source software for building communities. Communities for your peers, customers, fanbases, families, friends, and any other time and space where people need to come together to be part of a collective. dev.to is hosted on forem.62.08. A high-level overview of Loop Energy Inc. (LPEN:CA) stock. Stay up to date on the latest stock price, chart, news, analysis, fundamentals, trading and …Nov 24, 2023 · September 18, 2022. Get Loop Energy Inc (LPEN.TO) real-time stock quotes, news, price and financial information from Reuters to inform your trading and investments. Open Stackable Ball Tips Cuff Wristlet. Women Scratch Engraved Bracelet. Emboss Cracks Bangle Bracelet. Gold/Silver Brass Shackle Handcuff. (305) $28.06. Unisex Basic Open Ball Tip Bangle Bracelet. Women&Men Square Plain Top Cuff Wristlet Shackle. Antique Brass/Silver/Gold Plate Stack Handcuff.Capital One 360: Best Large Bank. We chose Capital One 360 because its hybrid structure offers the best of both worlds: low-fee, competitive online accounts and access to in-person banking at its ...TMX Group Limited and its affiliates do not endorse or recommend any securities issued by any companies identified on, or linked through, this site.The previously published five primers (LP1, Lpen.hum1F, Lpen. hum2F, Lpen.hum2R, and Lpen. hum3R; Kikkawa et al. 2005) used for PCR and sequencing are ...Nov 22, 2023 · See the latest Loop Energy Inc Ordinary Shares stock price (LPEN:XTSE), related news, valuation, dividends and more to help you make your investing decisions. Click the File menu and select Open. This menu is in the upper left corner and will open a window to browse for files on your computer. 4. Select Text CSV in the "File type" menu. You may have to scroll a bit down the …How to view PUB format. Click anywhere in the blue area or on the Browse for file button to upload or drag & drop it. You can also add the document by entering its URL in the URL cell. Click on the View button. Your PUB file will be automatically rendered for you to view instantly. Save your PUB pages as an image file.Watch the 2021 US Open (First Round) live stream from ESPN on Watch ESPN. First streamed on Tuesday, August 31, 2021.Jul 31, 2023 · Choose the CUE file that goes with the BIN file you want to open and click on it while using your virtual drive's selection tool. If you want, you can change the name of the file, which becomes a virtual disc, so you can tell it apart from the BIN and CUE files more easily. 4. Choose "mount". Most of you might have seen CRDOWNLOAD files while downloading video, music files, document files, etc. They are temp files created by Chrome when you download a file. In fact, they are created by ...ROLLS N PIZZA (475 6th St) Top Offer • 2 Offers Available. ROLLS N PIZZA (475 6th St) 30–45 min. • $$. 4.8.Explore a full range of Information Management products that seamlessly power people and processes, connect partners and protect data.LPEN | Legal Professionals Education Network | 723 followers on LinkedIn. Learn from the Experts | We are a provider of continuing professional education courses of the highest quality to lawyers ...32.31%. Free cash flow. Amount of cash a business has after it has met its financial obligations such as debt and outstanding payments. -633.75K. 91.39%. Get the latest Loop Energy Inc (LPEN) real ...Many online brokerage firms, including Schwab and Fidelity, don’t require a minimum to open an account, though some firms may require a modest balance of, say, $500 or $1,000. And at most ...Legal Professionals Education Network. 133 likes · 6 talking about this. Provider of continuing professional education courses of the highest quality to.... Bark inc